LINKIFIER! Download from all major filehosters with one premium account!
Jan312018

VA - Ministry Of Sound: The Score [3CD] (2017) FLAC

xyzuMUSIC14:440
VA - Ministry Of Sound: The Score [3CD] (2017) FLAC
Artist: Various Artists
Title: Ministry Of Sound: The Score
Year Of Release: 2017-12-01
Label: Ministry Of Sound Recordings Ltd. (UK)
Genre: Soundtrack, Film Score, Classical, Pop/Rock, Easy Listening, Ambient
Quality: FLAC (tracks+.cue+.log)
Total Time: 03:46:09
Total Size: 1,19 Gb (Full Scans~63,77 Mb)




Download

Tracklist:

Disc 1

01. John Williams & London Symphony Orchestra - Main Title (From Star Wars) [05:43]
02. John Barry - The James Bond Theme (From Dr. No) [02:53]
03. John Williams & The Boston Pops Orchestra - The Raider's March (From Raiders of the Lost Ark) [05:10]
04. The City of Prague Philharmonic Orchestra - Speak Softly Love (From The Godfather) [02:44]
05. Royal Philharmonic Orchestra - Suite (From Jurassic Park) [05:33]
06. Hans Zimmer - This Land (From The Lion King) [02:54]
07. Hans Zimmer & Lisa Gerrard - Now We Are Free (From Gladiator) [04:17]
08. James Horner - End Credits (From Braveheart) [07:10]
09. Royal Philharmonic Orchestra - Hedwig's Theme (From Harry Potter and the Philosopher's Stone) [05:15]
10. Hans Zimmer - Drink Up Me Hearties Yo Ho (From Pirates of the Caribbean: At World's End) [04:32]
11. Royal Philharmonic Orchestra - Main Theme (From Superman) [04:11]
12. Danny Elfman - The Batman Theme (From Batman) [02:38]
13. The City of Prague Philharmonic Orchestra - Back to the Future (From Back to the Future) [03:26]
14. The City of Prague Philharmonic Orchestra - Life's a Dream (From Star Trek V: The Final Frontier) [04:03]
15. The City of Prague Philharmonic Orchestra - Thee Fellowship
(From Lord of the Rings - The Fellowship of the Ring) [05:52]
16. The London Ensemble - Lux Aeterna (From Requiem for a Dream) [03:56]
17. Royal Philharmonic Orchestra - Time (From Inception) [05:11]
18. Brian Eno - An Ending (Ascent) (From Traffic) [04:21]

 Dynamic Range Meter log CD1--------------------------------------------------------------------------------
Analyzed: Brian Eno / Ministry of Sound: The Score (Disc 1) (1)
Danny Elfman / Ministry of Sound: The Score (Disc 1) (2)
Hans Zimmer & Lisa Gerrard / Ministry of Sound: The Score (Disc 1) (3)
Hans Zimmer / Ministry of Sound: The Score (Disc 1) (4-5)
James Horner / Ministry of Sound: The Score (Disc 1) (6)
John Barry / Ministry of Sound: The Score (Disc 1) (7)
John Williams & London Symphony Orchestra / Ministry of Sound: The Score (Disc 1) (8)
John Williams & The Boston Pops Orchestra / Ministry of Sound: The Score (Disc 1) (9)
Royal Philharmonic Orchestra / Ministry of Sound: The Score (Disc 1) (10-13)
The City of Prague Philharmonic Orchestra / Ministry of Sound: The Score (Disc 1) (14-17)
The London Ensemble / Ministry of Sound: The Score (Disc 1) (18)
--------------------------------------------------------------------------------

DR Peak RMS Duration Track
--------------------------------------------------------------------------------
DR10 -0.70 dB -13.71 dB 4:22 18-An Ending (Ascent) (From Traffic)
DR12 -0.10 dB -16.45 dB 2:39 12-The Batman Theme (From Batman)
DR8 -2.13 dB -14.87 dB 4:17 07-Now We Are Free (From Gladiator)
DR11 -0.10 dB -15.45 dB 2:55 06-This Land (From The Lion King)
DR9 -1.06 dB -13.62 dB 4:32 10-Drink Up Me Hearties Yo Ho (From Pirates of the Caribbean-At World's End)
DR12 -0.76 dB -17.69 dB 7:10 08-End Credits (From Braveheart)
DR11 -0.96 dB -15.45 dB 2:54 02-The James Bond Theme (From Dr. No)
DR12 -0.10 dB -14.93 dB 5:43 01-Main Title (From Star Wars)
DR13 -0.10 dB -17.68 dB 5:10 03-The Raider's March (From Raiders of the Lost Ark)
DR9 -1.17 dB -13.41 dB 5:34 05-Suite (From Jurassic Park)
DR11 -0.10 dB -15.60 dB 5:16 09-Hedwig's Theme (From Harry Potter and the Philosopher's Stone)
DR8 -1.62 dB -11.86 dB 4:11 11-Main Theme (From Superman)
DR11 -0.10 dB -15.87 dB 5:11 17-Time (From Inception)
DR11 -1.54 dB -17.03 dB 2:44 04-Speak Softly Love (From The Godfather)
DR10 -0.71 dB -13.76 dB 3:27 13-Back to the Future (From Back to the Future)
DR8 -0.98 dB -12.07 dB 4:04 14-Life's a Dream (From Star Trek V-The Final Frontier)
DR10 -0.65 dB -14.66 dB 5:52 15-Thee Fellowship (From Lord of the Rings - The Fellowship of the Ring)
DR6 -2.38 dB -10.81 dB 3:56 16-Lux Aeterna (From Requiem for a Dream)
--------------------------------------------------------------------------------

Number of tracks: 18
Official DR0.10 dB -17.30 dB 2:51 11-Nina's Dream (From Black Swan)
DR9 -0.68 dB -13.13 dB 2:00 17-Lion Theme (From Lion)
DR11 -1.17 dB -19.54 dB 2:20 09-Gabriel's Oboe (From The Mission)
DR12 -0.21 dB -16.20 dB 3:40 18-You're So Cool (From True Romance)
DR11 -0.37 dB -16.45 dB 2:53 02-Rose (From Titanic)
DR14 -0.10 dB -19.69 dB 7:42 16-Becoming One of 'The People' Bcoming One With Neytiri (From Avatar)
DR13 -0.94 dB -20.41 dB 4:04 08-Nocturne in C-Sharp Minor, B. 49 (From The Pianist)
DR10 -2.42 dB -16.78 dB 3:14 10-Main Title (I Had a Farm in Africa) (From Out of Africa)
DR10 -0.26 dB -13.25 dB 2:20 12-The John Dunbar Theme (Theme from Dances With Wolves)
DR14 -0.49 dB -18.16 dB 2:51 04-Plastic Bag Theme (From American Beauty)
DR9 -1.17 dB -13.56 dB 10:24 01-Adventures on Earth (From E.T.)
DR12 -0.10 dB -17.85 dB 5:49 03-The Balcony Scene (From Romeo and Juliet)
DR11 -1.20 dB -15.21 dB 2:51 06-Love Theme (From Spartacus)
DR11 -1.53 dB -16.45 dB 3:08 07-As Time Goes By (From Casablanca)
DR7 -2.53 dB -12.90 dB 4:23 13-Tara's Theme (From Gone With the Wind)
DR10 -1.31 dB -14.71 dB 5:29 15-Lara's Theme (From Dr. Zhivago)
DR10 -0.41 dB -14.56 dB 1:47 14-Main Title (From The Last of the Mohicans)
DR14 -0.10 dB -18.71 dB 4:56 05-Love Theme (From Blade Runner)
--------------------------------------------------------------------------------

Number of tracks: 18
Official DR0.10 dB -16.73 dB 2:42 08-I'm Forrest... Forrest Gump (From Forrest Gump)
DR7 -2.97 dB -13.50 dB 2:37 11-The Imitation Game (From The Imitation Game)
DR7 -4.64 dB -17.80 dB 5:52 17-Ruthless Gravity (From Layer Cake)
DR12 -0.10 dB -16.33 dB 1:52 10-The Wings (From Brokeback Mountain)
DR10 -2.25 dB -17.29 dB 5:32 15-Only the Beginning of the Adventure (From The Chronicles of Narnia-The Lion, The Witch and the Wardrobe)
DR8 -1.56 dB -13.37 dB 2:55 16-Beethoven Havok (From X-Men-Apocalypse)
DR9 -0.93 dB -15.52 dB 4:39 14-Gravity (From Gravity)
DR9 -2.04 dB -12.80 dB 7:22 02-God Moving Over the Face of the Waters (From Heat)
DR11 -2.27 dB -17.47 dB 3:43 09-Pi's Lullaby (From Life of Pi)
DR10 -0.36 dB -14.92 dB 4:14 12-The Darkest Day (From Independence Day)
DR8 -2.68 dB -12.38 dB 1:46 01-Main Titles (From Game of Thrones)
DR12 -3.04 dB -19.19 dB 3:59 05-Main Theme (From Schindler's List)
DR10 -1.36 dB -16.54 dB 2:32 18-Main Theme (From Jaws)
DR15 -0.41 dB -21.11 dB 6:46 03-Adagio for Strings (From Platoon)
DR8 -2.80 dB -16.27 dB 6:05 06-Hymn to the Fallen (From Saving Privat Ryan)
DR10 -0.96 dB -16.17 dB 3:20 07-Solomon (From 12 Years a Slave)
DR12 -0.10 dB -19.16 dB 3:02 13-Apollo 13 (From Apollo 13)
DR11 -0.56 dB -17.13 dB 4:29 04-Shawshank Redemption (From Shawshank Redemption)
--------------------------------------------------------------------------------

DOWNLOAD
uploadgig


nitroflare


rapidgator


turbobit

Related News

Comments (0)

Information

Support downTURK
You can support downTURK by buying a Linkifier account. %70 of your payment goes to downTURK.

linkifier

Linkifier.com allows you to download as a premium user at fast speeds from all major filehosters!
Latest Mini Game Releases
Recommended Filehosts